<?xml version="1.0" standalone="no"?>
<!DOCTYPE svg PUBLIC "-//W3C//DTD SVG 1.1//EN" "http://www.w3.org/Graphics/SVG/1.1/DTD/svg11.dtd" >
<svg xmlns="http://www.w3.org/2000/svg">
<metadata>Generated by IcoMoon</metadata>
<defs>
<font id="icomoon" horiz-adv-x="1024">
<font-face units-per-em="1024" ascent="960" descent="-64" />
<missing-glyph horiz-adv-x="1024" />
<glyph unicode="&#x20;" horiz-adv-x="512" d="" />
<glyph unicode="&#xe900;" glyph-name="add" d="M768 416h-512c-17.493 0-32 14.507-32 32s14.507 32 32 32h512c17.493 0 32-14.507 32-32s-14.507-32-32-32zM512 160c-17.493 0-32 14.507-32 32v512c0 17.493 14.507 32 32 32s32-14.507 32-32v-512c0-17.493-14.507-32-32-32z" />
<glyph unicode="&#xe901;" glyph-name="arrow-left" d="M408.297 157.009c-8.107 0-16.213 2.987-22.613 9.387l-258.987 258.987c-12.373 12.373-12.373 32.853 0 45.227l258.987 258.986c12.373 12.373 32.853 12.373 45.229 0 12.373-12.373 12.373-32.853 0-45.227l-236.375-236.372 236.375-236.373c12.373-12.373 12.373-32.853 0-45.227-5.975-6.4-14.509-9.387-22.615-9.387zM874.662 416h-718.079c-17.493 0-32 14.507-32 32s14.507 32 32 32h718.079c17.493 0 32-14.507 32-32s-14.507-32-32-32z" />
<glyph unicode="&#xe902;" glyph-name="clipboard-text" d="M640 407.458h-298.667c-17.493 0-32 14.507-32 32s14.507 32 32 32h298.667c17.493 0 32-14.507 32-32s-14.507-32-32-32zM528.213 236.791h-186.88c-17.493 0-32 14.507-32 32s14.507 32 32 32h186.88c17.493 0 32-14.507 32-32s-14.507-32-32-32zM597.333 672h-170.667c-40.96 0-117.333 0-117.333 117.333s76.373 117.333 117.333 117.333h170.667c40.96 0 117.333 0 117.333-117.333 0-40.96 0-117.333-117.333-117.333zM426.667 842.667c-42.24 0-53.333 0-53.333-53.333s11.093-53.333 53.333-53.333h170.667c53.333 0 53.333 11.093 53.333 53.333 0 53.333-11.093 53.333-53.333 53.333h-170.667zM640-10.662h-256c-239.787 0-288 110.080-288 288v255.999c0 194.56 70.4 277.76 243.627 286.72 17.067 0.853 32.853-12.373 33.707-30.293s-12.8-32.427-30.293-33.28c-121.173-6.827-183.040-43.093-183.040-223.147v-255.999c0-157.867 31.147-224 224-224h256c192.853 0 224 66.133 224 224v255.999c0 180.053-61.867 216.32-183.040 223.147-17.493 0.853-31.147 16.213-30.293 33.707s16.213 31.147 33.707 30.293c173.227-9.387 243.627-92.587 243.627-286.72v-255.999c0-178.347-48.213-288.427-288-288.427z" />
<glyph unicode="&#xe903;" glyph-name="close" d="M512 391.305l-272.937-272.951c-7.452-7.441-16.818-11.251-28.098-11.43-11.272-0.171-20.808 3.639-28.609 11.43-7.792 7.804-11.689 17.254-11.689 28.356s3.896 20.553 11.689 28.352l272.949 272.939-272.949 272.937c-7.443 7.452-11.254 16.818-11.433 28.098-0.17 11.272 3.641 20.808 11.433 28.609 7.801 7.792 17.252 11.689 28.354 11.689s20.552-3.896 28.354-11.689l272.937-272.949 272.939 272.949c7.45 7.443 16.815 11.254 28.096 11.433 11.273 0.17 20.809-3.641 28.612-11.433 7.791-7.801 11.686-17.253 11.686-28.354s-3.895-20.552-11.686-28.354l-272.951-272.937 272.951-272.939c7.441-7.45 11.251-16.815 11.43-28.096 0.171-11.273-3.639-20.809-11.43-28.612-7.804-7.791-17.254-11.686-28.356-11.686s-20.553 3.895-28.352 11.686l-272.939 272.951z" />
<glyph unicode="&#xe904;" glyph-name="coin" d="M512-10.662c-170.667 0-309.333 122.453-309.333 273.067v157.867c0 17.493 14.507 32 32 32s32-14.507 32-32c0-111.787 105.387-196.267 245.333-196.267s245.333 84.48 245.333 196.267c0 17.493 14.507 32 32 32s32-14.507 32-32v-157.867c0-150.613-138.667-273.067-309.333-273.067zM266.667 257.711c2.987-113.067 111.787-204.373 245.333-204.373s242.347 91.307 245.333 204.373c-55.467-60.16-143.36-97.707-245.333-97.707s-189.44 37.547-245.333 97.707zM512 373.333c-117.76 0-223.574 52.907-275.2 138.24-22.187 36.267-34.133 78.507-34.133 122.027 0 73.387 32.853 142.507 92.16 194.56 58.027 50.773 135.253 78.507 217.173 78.507s158.72-27.733 217.173-78.080c59.307-52.48 92.16-121.6 92.16-194.987 0-43.52-11.947-85.333-34.133-122.027-51.627-85.333-157.44-138.24-275.2-138.24zM512 842.667c-66.56 0-128.853-22.187-175.36-63.147-45.227-39.253-69.974-91.307-69.974-145.92 0-32 8.533-61.867 24.746-88.747 40.533-66.56 125.014-107.52 220.587-107.52s180.053 41.387 220.587 107.52c16.64 26.88 24.747 56.747 24.747 88.747 0 54.613-24.747 106.667-70.4 146.773-46.507 40.107-108.373 62.293-174.933 62.293zM512 160c-176.213 0-309.333 111.787-309.333 260.267v213.333c0 150.613 138.667 273.067 309.333 273.067 81.92 0 158.72-27.733 217.173-78.080 59.307-52.48 92.16-121.6 92.16-194.987v-213.333c0-148.48-133.12-260.267-309.333-260.267zM512 842.667c-135.253 0-245.333-93.867-245.333-209.067v-213.333c0-111.787 105.387-196.267 245.333-196.267s245.333 84.48 245.333 196.267v213.333c0 54.613-24.747 106.667-70.4 146.773-46.507 40.107-108.373 62.293-174.933 62.293z" />
<glyph unicode="&#xe905;" glyph-name="export" d="M616.098 650.672c-8.107 0-16.213 2.987-22.613 9.387l-86.613 86.613-86.615-86.613c-12.373-12.373-32.853-12.373-45.227 0s-12.373 32.853 0 45.227l109.228 109.227c12.373 12.373 32.853 12.373 45.227 0l109.227-109.227c12.373-12.373 12.373-32.853 0-45.227-6.4-6.4-14.507-9.387-22.613-9.387zM506.918 322.987c-17.493 0-32 14.507-32 32v433.92c0 17.493 14.507 32 32 32s32-14.507 32-32v-433.92c0-17.92-14.507-32-32-32zM512 74.667c-219.733 0-373.333 153.6-373.333 373.333 0 17.493 14.507 32 32 32s32-14.507 32-32c0-182.187 127.147-309.333 309.333-309.333s309.333 127.147 309.333 309.333c0 17.493 14.507 32 32 32s32-14.507 32-32c0-219.733-153.6-373.333-373.333-373.333z" />
<glyph unicode="&#xe906;" glyph-name="import" d="M506.871 320.422c-8.107 0-16.213 2.987-22.613 9.387l-109.228 109.227c-12.373 12.373-12.373 32.853 0 45.227s32.853 12.373 45.227 0l86.615-86.613 86.613 86.613c12.373 12.373 32.853 12.373 45.227 0s12.373-32.853 0-45.227l-109.227-109.227c-6.4-6.4-14.507-9.387-22.613-9.387zM506.918 323.413c-17.493 0-32 14.507-32 32v433.92c0 17.493 14.507 32 32 32s32-14.507 32-32v-433.92c0-17.493-14.507-32-32-32zM512 66.991c-219.733 0-373.333 153.6-373.333 373.333 0 17.493 14.507 32 32 32s32-14.507 32-32c0-182.187 127.147-309.333 309.333-309.333s309.333 127.147 309.333 309.333c0 17.493 14.507 32 32 32s32-14.507 32-32c0-219.733-153.6-373.333-373.333-373.333z" />
<glyph unicode="&#xe907;" glyph-name="logout" d="M744.145 304.218c-8.107 0-16.213 2.987-22.613 9.387-12.373 12.373-12.373 32.853 0 45.227l86.613 86.613-86.613 86.613c-12.373 12.372-12.373 32.852 0 45.225s32.853 12.373 45.227 0l109.227-109.225c12.373-12.373 12.373-32.853 0-45.227l-109.227-109.227c-6.4-6.4-14.507-9.387-22.613-9.387zM850.338 413.436h-433.921c-17.493 0-32 14.507-32 32s14.507 32 32 32h433.921c17.493 0 32-14.507 32-32s-14.507-32-32-32zM501.751 74.667c-219.735 0-373.335 153.6-373.335 373.333s153.6 373.333 373.335 373.333c17.493 0 32-14.507 32-32s-14.507-32-32-32c-182.188 0-309.335-127.147-309.335-309.333s127.147-309.333 309.335-309.333c17.493 0 32-14.507 32-32s-14.507-32-32-32z" />
<glyph unicode="&#xe908;" glyph-name="minus" d="M768 416h-512c-17.493 0-32 14.507-32 32s14.507 32 32 32h512c17.493 0 32-14.507 32-32s-14.507-32-32-32z" />
<glyph unicode="&#xe909;" glyph-name="more" d="M213.333 330.667c-64.853 0-117.333 52.48-117.333 117.333s52.48 117.333 117.333 117.333c64.853 0 117.333-52.48 117.333-117.333s-52.48-117.333-117.333-117.333zM213.333 501.333c-29.44 0-53.333-23.893-53.333-53.333s23.893-53.333 53.333-53.333c29.44 0 53.333 23.893 53.333 53.333s-23.893 53.333-53.333 53.333zM810.667 330.667c-64.853 0-117.333 52.48-117.333 117.333s52.48 117.333 117.333 117.333c64.853 0 117.333-52.48 117.333-117.333s-52.48-117.333-117.333-117.333zM810.667 501.333c-29.44 0-53.333-23.893-53.333-53.333s23.893-53.333 53.333-53.333c29.44 0 53.333 23.893 53.333 53.333s-23.893 53.333-53.333 53.333zM512 330.667c-64.853 0-117.333 52.48-117.333 117.333s52.48 117.333 117.333 117.333c64.853 0 117.333-52.48 117.333-117.333s-52.48-117.333-117.333-117.333zM512 501.333c-29.44 0-53.333-23.893-53.333-53.333s23.893-53.333 53.333-53.333c29.44 0 53.333 23.893 53.333 53.333s-23.893 53.333-53.333 53.333z" />
<glyph unicode="&#xe90a;" glyph-name="setting" d="M512 288c-88.32 0-160 71.68-160 160s71.68 160 160 160c88.32 0 160-71.68 160-160s-71.68-160-160-160zM512 544c-52.907 0-96-43.093-96-96s43.093-96 96-96c52.907 0 96 43.093 96 96s-43.093 96-96 96zM648.96 13.235c-8.96 0-17.92 1.28-26.88 3.413-26.453 7.253-48.64 23.893-62.72 47.36l-5.12 8.533c-25.173 43.52-59.733 43.52-84.907 0l-4.693-8.107c-14.080-23.893-36.267-40.96-62.72-47.787-26.88-7.253-54.613-3.413-78.080 10.667l-73.387 42.24c-26.027 14.933-44.8 39.253-52.907 68.693-7.68 29.44-3.84 59.733 11.093 85.76 12.373 21.76 15.787 41.387 8.533 53.76s-25.6 19.627-50.773 19.627c-62.293 0-113.067 50.773-113.067 113.067v75.093c0 62.293 50.773 113.067 113.067 113.067 25.173 0 43.52 7.253 50.773 19.627s4.267 32-8.533 53.76c-14.933 26.027-18.773 56.747-11.093 85.76 7.68 29.44 26.453 53.76 52.907 68.693l73.813 42.24c48.213 28.587 111.787 11.947 140.8-37.12l5.12-8.533c25.173-43.52 59.733-43.52 84.907 0l4.693 8.107c29.013 49.493 92.587 66.133 141.227 37.12l73.387-42.24c26.027-14.933 44.8-39.253 52.907-68.693 7.68-29.44 3.84-59.733-11.093-85.76-12.373-21.76-15.787-41.387-8.533-53.76s25.6-19.627 50.773-19.627c62.293 0 113.067-50.773 113.067-113.067v-75.093c0-62.293-50.773-113.067-113.067-113.067-25.173 0-43.52-7.253-50.773-19.627s-4.267-32 8.533-53.76c14.933-26.027 19.2-56.747 11.093-85.76-7.68-29.44-26.453-53.76-52.907-68.693l-73.813-42.24c-16.213-8.96-33.707-13.653-51.627-13.653zM512 171.102c37.973 0 73.387-23.893 97.707-66.133l4.693-8.107c5.12-8.96 13.653-15.36 23.893-17.92s20.48-1.28 29.013 3.84l73.813 42.667c11.093 6.4 19.627 17.067 23.040 29.867s1.707 26.027-4.693 37.12c-24.32 41.813-27.307 84.907-8.533 117.76s57.6 51.627 106.24 51.627c27.307 0 49.067 21.76 49.067 49.067v75.093c0 26.88-21.76 49.067-49.067 49.067-48.64 0-87.467 18.773-106.24 51.627s-15.787 75.947 8.533 117.76c6.4 11.093 8.107 24.32 4.693 37.12s-11.52 23.040-22.613 29.867l-73.813 42.24c-18.347 11.093-42.667 4.693-53.76-14.080l-4.693-8.107c-24.32-42.24-59.733-66.133-97.707-66.133s-73.387 23.893-97.707 66.133l-4.693 8.533c-10.667 17.92-34.56 24.32-52.907 13.653l-73.813-42.667c-11.093-6.4-19.627-17.067-23.040-29.867s-1.707-26.027 4.693-37.12c24.32-41.813 27.307-84.907 8.533-117.76s-57.6-51.627-106.24-51.627c-27.307 0-49.067-21.76-49.067-49.067v-75.093c0-26.88 21.76-49.067 49.067-49.067 48.64 0 87.467-18.773 106.24-51.627s15.787-75.947-8.533-117.76c-6.4-11.093-8.107-24.32-4.693-37.12s11.52-23.040 22.613-29.867l73.813-42.24c8.96-5.547 19.627-6.827 29.44-4.267 10.24 2.56 18.773 9.387 24.32 18.347l4.693 8.107c24.32 41.813 59.733 66.133 97.707 66.133z" />
<glyph unicode="&#xe90b;" glyph-name="user" d="M512 416c-135.253 0-245.333 110.080-245.333 245.333s110.080 245.333 245.333 245.333c135.253 0 245.333-110.080 245.333-245.333s-110.080-245.333-245.333-245.333zM512 842.667c-99.84 0-181.333-81.493-181.333-181.333s81.493-181.333 181.333-181.333c99.84 0 181.333 81.493 181.333 181.333s-81.493 181.333-181.333 181.333zM878.511-10.667c-17.493 0-32 14.507-32 32 0 147.2-150.182 266.667-334.502 266.667-184.322 0-334.508-119.467-334.508-266.667 0-17.493-14.507-32-32-32s-32 14.507-32 32c0 182.187 178.773 330.667 398.508 330.667 219.733 0 398.502-148.48 398.502-330.667 0-17.493-14.507-32-32-32z" />
<glyph unicode="&#xe90c;" glyph-name="wallet-search" d="M725.333-10.667h-213.333c-17.493 0-32 14.507-32 32s14.507 32 32 32h213.333c110.080 0 181.333 71.253 181.333 181.333v213.333c0 97.707-60.587 170.667-151.040 181.333h-456.96c-11.947 0-16.213 0-23.893-2.56-2.133-0.853-4.267-1.281-6.4-1.281-94.293-11.093-151.040-77.225-151.040-177.492v-42.667c0-17.493-14.507-32-32-32s-32 14.507-32 32v42.667c0 130.56 80.213 224.854 204.373 240.64 16.213 4.693 28.16 4.693 40.96 4.693h460.8c128-14.933 211.2-113.493 211.2-245.333v-213.333c0-146.773-98.56-245.333-245.333-245.333zM264.526 625.068c-8.533 0-16.64 3.412-22.613 9.385-8.533 8.533-11.52 21.334-7.68 32.854 6.827 20.053 19.2 32.425 33.28 46.505l136.107 140.375c70.398 70.4 189.012 70.4 258.985 0.427l76.8-76.802c28.16-28.16 46.080-66.985 51.627-112.638 1.28-8.96-1.707-18.348-7.68-25.175s-14.933-10.667-23.893-10.667h-460.798c-11.947 0-16.213 0-23.893-2.56-3.413-1.28-6.827-1.705-10.24-1.705zM336.633 693.334h382.292c-5.12 13.653-13.227 27.306-24.747 39.252l-76.8 76.8c-45.653 45.653-122.453 45.653-168.107 0l-112.638-116.052zM938.667 224h-128c-64.853 0-117.333 52.48-117.333 117.333s52.48 117.333 117.333 117.333h128c17.493 0 32-14.507 32-32s-14.507-32-32-32h-128c-29.44 0-53.333-23.893-53.333-53.333s23.893-53.333 53.333-53.333h128c17.493 0 32-14.507 32-32s-14.507-32-32-32zM247.45 14.933c-93.013 0-168.533 75.52-168.533 168.533s75.52 168.533 168.533 168.533c93.013 0 168.533-75.52 168.533-168.533s-75.52-168.533-168.533-168.533zM247.45 288c-57.6 0-104.533-46.933-104.533-104.533s46.933-104.533 104.533-104.533c57.6 0 104.533 46.933 104.533 104.533s-46.933 104.533-104.533 104.533zM85.31-10.667c-8.107 0-16.213 2.987-22.613 9.387-12.373 12.373-12.373 32.858 0 45.231l42.667 42.667c12.373 12.373 32.853 12.373 45.227 0s12.373-32.858 0-45.231l-42.667-42.667c-6.4-6.4-14.507-9.387-22.613-9.387z" />
<glyph unicode="&#xe90d;" glyph-name="calendar" d="M341.333 714.667c-17.493 0-32 14.507-32 32v128c0 17.493 14.507 32 32 32s32-14.507 32-32v-128c0-17.493-14.507-32-32-32zM682.667 714.667c-17.493 0-32 14.507-32 32v128c0 17.493 14.507 32 32 32s32-14.507 32-32v-128c0-17.493-14.507-32-32-32zM362.667 341.333c-5.547 0-11.093 1.28-16.213 3.413-5.547 2.133-9.813 5.12-14.080 8.96-7.68 8.107-12.373 18.773-12.373 30.293 0 5.547 1.28 11.094 3.413 16.214s5.12 9.813 8.96 14.079c4.267 3.84 8.533 6.828 14.080 8.961 15.36 6.4 34.56 2.986 46.507-8.961 7.68-8.107 12.373-19.199 12.373-30.293 0-2.56-0.427-5.547-0.853-8.533-0.427-2.56-1.28-5.12-2.56-7.68-0.853-2.56-2.133-5.12-3.84-7.68-1.28-2.133-3.413-4.267-5.12-6.4-8.107-7.68-19.2-12.373-30.293-12.373zM512 341.339c-5.547 0-11.093 1.28-16.213 3.413-5.547 2.133-9.813 5.12-14.080 8.96-7.68 8.107-12.373 18.773-12.373 30.293 0 5.547 1.28 11.093 3.413 16.213s5.12 9.813 8.96 14.079c4.267 3.84 8.533 6.828 14.080 8.961 15.36 6.827 34.56 2.986 46.507-8.961 7.68-8.107 12.373-19.199 12.373-30.293 0-2.56-0.427-5.547-0.853-8.533-0.427-2.56-1.28-5.12-2.56-7.68-0.853-2.56-2.133-5.12-3.84-7.68-1.28-2.133-3.413-4.267-5.12-6.4-8.107-7.68-19.2-12.373-30.293-12.373zM661.333 341.339c-5.547 0-11.093 1.28-16.213 3.413-5.547 2.133-9.813 5.12-14.080 8.96-1.707 2.133-3.413 4.267-5.12 6.4-1.707 2.56-2.987 5.12-3.84 7.68-1.28 2.56-2.133 5.12-2.56 7.68-0.427 2.987-0.853 5.973-0.853 8.533 0 11.093 4.693 22.186 12.373 30.293 4.267 3.84 8.533 6.828 14.080 8.961 15.787 6.827 34.56 2.986 46.507-8.961 7.68-8.107 12.373-19.199 12.373-30.293 0-2.56-0.427-5.547-0.853-8.533-0.427-2.56-1.28-5.12-2.56-7.68-0.853-2.56-2.133-5.12-3.84-7.68-1.28-2.133-3.413-4.267-5.12-6.4-8.107-7.68-19.2-12.373-30.293-12.373zM362.667 192.006c-5.547 0-11.093 1.28-16.213 3.413s-9.813 5.12-14.080 8.96c-7.68 8.107-12.373 19.2-12.373 30.293 0 5.547 1.28 11.093 3.413 16.213 2.133 5.547 5.12 10.24 8.96 14.080 15.787 15.787 44.8 15.787 60.587 0 7.68-8.107 12.373-19.2 12.373-30.293s-4.693-22.187-12.373-30.293c-8.107-7.68-19.2-12.373-30.293-12.373zM512 192.006c-11.093 0-22.187 4.693-30.293 12.373-7.68 8.107-12.373 19.2-12.373 30.293 0 5.547 1.28 11.093 3.413 16.213 2.133 5.547 5.12 10.24 8.96 14.080 15.787 15.787 44.8 15.787 60.587 0 3.84-3.84 6.827-8.533 8.96-14.080 2.133-5.12 3.413-10.667 3.413-16.213 0-11.093-4.693-22.187-12.373-30.293-8.107-7.68-19.2-12.373-30.293-12.373zM661.333 192.006c-11.093 0-22.187 4.693-30.293 12.373-3.84 3.84-6.827 8.533-8.96 14.080-2.133 5.12-3.413 10.667-3.413 16.213s1.28 11.093 3.413 16.213c2.133 5.547 5.12 10.24 8.96 14.080 9.813 9.813 24.747 14.507 38.4 11.52 2.987-0.427 5.547-1.28 8.107-2.56 2.56-0.853 5.12-2.133 7.68-3.84 2.133-1.28 4.267-3.413 6.4-5.12 7.68-8.107 12.373-19.2 12.373-30.293s-4.693-22.187-12.373-30.293c-8.107-7.68-19.2-12.373-30.293-12.373zM874.667 540.167h-725.333c-17.493 0-32 14.507-32 32s14.507 32 32 32h725.333c17.493 0 32-14.507 32-32s-14.507-32-32-32zM682.667-10.667h-341.333c-155.733 0-245.333 89.6-245.333 245.333v362.667c0 155.733 89.6 245.333 245.333 245.333h341.333c155.733 0 245.333-89.6 245.333-245.333v-362.667c0-155.733-89.6-245.333-245.333-245.333zM341.333 778.667c-122.027 0-181.333-59.307-181.333-181.333v-362.667c0-122.027 59.307-181.333 181.333-181.333h341.333c122.027 0 181.333 59.307 181.333 181.333v362.667c0 122.027-59.307 181.333-181.333 181.333h-341.333z" />
<glyph unicode="&#xe90e;" glyph-name="check" d="M819.2 765.227c-3.378-1.617-6.277-3.629-8.804-6.030l0.015 0.014c-2.475-2.347-86.144-126.763-185.899-276.437l-181.419-272.128-117.035 116.779c-125.781 125.525-121.643 121.941-137.685 120.107-20.523-2.304-33.792-25.387-25.557-44.373 1.365-3.2 58.496-61.525 136.107-138.965 126.677-126.464 134.101-133.547 140.928-134.613 8.747-1.408 7.595-1.365 15.744-0.085 4.647 1.019 8.723 2.996 12.18 5.723l-0.063-0.048c5.675 4.779 389.376 578.859 393.515 588.757 4.565 10.837 2.432 24.747-5.035 32.725-8.619 9.259-25.429 13.184-36.992 8.576z" />
<glyph unicode="&#xe90f;" glyph-name="clock" d="M512-10.667c-253.013 0-458.667 205.653-458.667 458.667s205.653 458.667 458.667 458.667c253.013 0 458.667-205.653 458.667-458.667s-205.653-458.667-458.667-458.667zM512 842.667c-217.6 0-394.667-177.067-394.667-394.667s177.067-394.667 394.667-394.667c217.6 0 394.667 177.067 394.667 394.667s-177.067 394.667-394.667 394.667zM670.293 280.331c-5.547 0-11.093 1.28-16.213 4.693l-132.268 78.933c-32.853 19.627-57.173 62.719-57.173 100.692v174.933c0 17.493 14.507 32 32 32s32-14.507 32-32v-174.933c0-15.36 12.8-37.974 26.027-45.653l132.268-78.932c15.36-8.96 20.053-28.587 11.093-43.947-6.4-10.24-17.067-15.787-27.733-15.787z" />
<glyph unicode="&#xe910;" glyph-name="swap" d="M328.533 732.288c-7.139-3.692-12.727-9.542-15.995-16.677l-0.090-0.219c-1.28-3.285-1.835-73.557-1.835-224.981 0-123.605-0.64-219.947-1.493-219.605-0.811 0.299-28.16 28.032-60.757 61.611s-61.483 62.208-64.128 63.573c-6.187 3.2-20.864 3.243-26.88 0.128-6.799-3.964-12.153-9.757-15.474-16.708l-0.099-0.231c-1.071-3.383-1.687-7.274-1.687-11.309 0-4.474 0.759-8.772 2.154-12.77l-0.083 0.272c3.115-7.253 180.053-189.013 186.667-191.787 3.711-1.398 8.001-2.207 12.48-2.207s8.769 0.809 12.731 2.289l-0.251-0.082c6.571 2.731 183.552 184.576 186.709 191.787 1.313 3.727 2.071 8.024 2.071 12.499 0 4.035-0.617 7.926-1.762 11.584l0.074-0.274c-3.42 7.182-8.774 12.975-15.392 16.841l-0.182 0.098c-6.016 3.115-20.693 3.072-26.88-0.128-2.645-1.365-31.531-29.995-64.171-63.573-20.536-21.393-40.341-41.468-60.413-61.272l-0.344-0.339c-0.811-0.341-1.451 98.517-1.451 219.605 0 151.424-0.555 221.696-1.835 224.981-3.375 7.48-9.122 13.393-16.267 16.892l-0.202 0.089c-3.717 1.381-8.010 2.181-12.491 2.181-4.568 0-8.942-0.831-12.979-2.35l0.254 0.084zM669.781 732.331c-6.272-2.773-183.381-184.96-186.283-191.701-1.313-3.727-2.071-8.024-2.071-12.499 0-4.035 0.617-7.926 1.762-11.584l-0.074 0.274c2.219-5.888 9.387-13.696 15.573-16.939 6.016-3.115 20.693-3.072 26.88 0.128 2.645 1.365 31.531 29.995 64.128 63.573 20.484 21.391 40.289 41.466 60.385 61.245l0.372 0.365c0.853 0.341 1.493-96.085 1.493-219.776 0-183.296 0.384-221.269 2.347-225.835 4.974-10.92 15.793-18.374 28.352-18.374 8.176 0 15.614 3.159 21.16 8.322l-0.019-0.017c10.155 9.472 9.6-3.84 9.6 235.904 0 121.216 0.64 220.117 1.451 219.776 0.768-0.299 28.117-28.032 60.757-61.611s61.525-62.208 64.171-63.573c6.187-3.2 20.864-3.243 26.88-0.128 6.799 3.964 12.153 9.757 15.474 16.708l0.099 0.231c1.071 3.383 1.687 7.274 1.687 11.309 0 4.474-0.759 8.772-2.154 12.77l0.083-0.272c-3.157 7.211-180.139 189.056-186.709 191.787-3.738 1.362-8.053 2.15-12.552 2.15-4.588 0-8.986-0.819-13.053-2.32l0.261 0.084z" />
<glyph unicode="&#xe911;" glyph-name="add-home-screen" d="M373.256 905.644c41.356 1.158 232.509 1.21 272.385 0.074 99.814-2.844 153.536-11.521 196.843-31.795 42.436-19.866 73.425-50.415 93.943-92.617 7.974-16.399 12.467-29.094 17.783-50.278 13.295-52.96 16.508-108.030 16.508-283.036 0-95.851-0.9-150.601-3.038-184.32-6.042-95.373-23.27-151.031-59.588-192.512-39.471-45.077-93.193-67.955-178.995-76.224-46.050-4.442-92.655-5.653-217.088-5.653-96.201 0-152.514 0.926-184.833 3.046-78.275 5.133-126.673 16.853-164.867 39.923-33.099 19.994-57.391 46.788-74.721 82.428-7.973 16.401-12.464 29.094-17.783 50.278-13.303 52.988-16.513 108.015-16.513 283.034 0 124.625 1.207 170.914 5.657 217.090 7.499 77.815 27.042 129.036 63.779 167.166 21.021 21.817 49.26 39.643 79.593 50.243 39.575 13.828 92.12 20.946 170.935 23.153zM377.352 841.581c-101.549-3.087-152.131-13.028-188.315-37.012-9.451-6.265-27.569-24.361-33.645-33.605-21.622-32.897-30.872-73.222-35.802-156.059-1.856-31.189-1.856-302.637 0-333.826 4.931-82.876 14.238-123.405 35.832-156.058 6.181-9.348 24.269-27.435 33.615-33.617 35.803-23.676 82.662-33.178 180.635-36.634 36.525-1.289 248.146-1.289 284.673 0 97.971 3.456 144.832 12.958 180.634 36.634 9.348 6.182 27.435 24.269 33.617 33.617 23.676 35.802 33.182 82.662 36.634 180.634 1.289 36.527 1.289 248.149 0 284.674-3.452 97.973-12.958 144.832-36.634 180.635-6.182 9.346-24.269 27.434-33.617 33.615-32.196 21.292-71.531 30.479-152.986 35.729-16.26 1.047-276.292 2.133-304.641 1.272zM501.457 606.319c-8.043-2.994-14.131-8.524-18.739-17.014-1.813-3.351-1.975-7.024-2.453-56.322l-0.512-52.736-52.736-0.512c-52.539-0.508-52.753-0.521-57.131-2.854-5.616-2.999-11.768-9.152-14.761-14.767-1.969-3.691-2.343-5.948-2.343-14.123 0-8.171 0.374-10.428 2.343-14.118 2.993-5.615 9.145-11.767 14.761-14.767 4.378-2.334 4.592-2.347 57.131-2.859l52.736-0.512 0.512-52.736c0.508-52.535 0.521-52.749 2.859-57.126 2.999-5.619 9.152-11.767 14.763-14.763 3.691-1.967 5.948-2.342 14.123-2.342s10.428 0.375 14.123 2.342c5.611 2.995 11.763 9.143 14.763 14.763 2.338 4.378 2.347 4.591 2.859 57.126l0.512 52.736 52.736 0.512c52.54 0.512 52.753 0.525 57.131 2.859 5.615 2.999 11.767 9.152 14.758 14.767 1.971 3.691 2.342 5.948 2.342 14.118 0 8.175-0.371 10.432-2.342 14.123-2.991 5.615-9.143 11.767-14.758 14.767-4.378 2.334-4.591 2.347-57.131 2.854l-52.736 0.512-0.512 52.736c-0.512 52.54-0.521 52.754-2.859 57.132-3.029 5.673-9.207 11.817-14.763 14.684-5.572 2.874-18.837 3.692-24.674 1.52z" />
<glyph unicode="&#xe912;" glyph-name="share" d="M501.982 905.245c-2.406-0.753-6.336-2.872-8.734-4.712-5.372-4.125-131.943-151.502-136.906-159.414-3.45-5.498-3.584-6.080-3.584-15.53 0-8.987 0.259-10.285 3.063-15.349 9.236-16.679 30.589-21.928 46.104-11.333 2.261 1.543 20.463 21.955 40.447 45.357 19.985 23.401 36.681 42.578 37.099 42.612 0.418 0.035 0.879-107.188 1.024-238.272l0.265-238.337 2.342-4.395c2.999-5.615 9.156-11.767 14.767-14.758 3.691-1.971 5.948-2.342 14.123-2.342s10.428 0.371 14.118 2.342c5.615 2.991 11.767 9.143 14.767 14.758l2.347 4.395 1.024 477.185 36.924-43.008c20.309-23.654 38.741-44.203 40.96-45.664 5.79-3.813 11.311-5.375 18.624-5.269 11.383 0.165 21.743 6.511 27.452 16.815 2.748 4.968 3.017 6.311 3.017 15.265 0 9.218-0.196 10.134-3.204 14.971-4.16 6.691-130.658 154.232-136.576 159.299-7.467 6.389-19.315 8.553-29.461 5.385zM249.334 607.050c-56.297-2.272-85.297-7.699-113.664-21.27-44.865-21.465-69.583-60.724-77.728-123.448-3.784-29.137-4.192-45.141-4.192-164.352 0-119.087 0.362-133.227 4.155-162.304 6.664-51.085 22.78-84.655 51.81-107.925 28.156-22.566 59.318-32.192 118.627-36.646 26.174-1.967 541.121-1.967 567.297 0 21.090 1.583 41.732 4.326 55.296 7.347 34.79 7.753 62.571 23.902 81.297 47.27 18.479 23.053 27.951 47.71 33.387 86.882 4.215 30.379 4.612 44.617 4.612 165.888 0 118.733-0.397 134.097-4.211 163.84-8.026 62.554-32.845 101.983-77.709 123.448-31.962 15.29-62.797 20.225-135.198 21.636-38.221 0.745-39.778 0.496-48.896-7.837-8.009-7.319-10.466-12.861-10.466-23.582 0-10.137 2.317-15.903 9.139-22.725 8.614-8.613 10.278-8.943 50.765-10.049 62.716-1.714 85.632-5.028 107.52-15.551 12.309-5.918 23.586-17.212 29.581-29.632 6.613-13.696 10.436-31.125 13.568-61.82 1.69-16.516 2.441-222.263 0.93-253.867-2.803-58.684-9.242-82.466-27.183-100.459-17.472-17.519-41.348-24.171-97.28-27.106-26.185-1.374-511.418-1.374-537.601 0-52.941 2.782-78.433 9.404-95.143 24.713-19.168 17.566-26.332 42.441-29.303 101.743-1.525 30.443-0.783 238.4 0.909 254.976 3.136 30.707 6.959 48.124 13.572 61.82 5.996 12.42 17.272 23.714 29.582 29.632 21.888 10.523 44.801 13.837 107.52 15.551 40.487 1.107 42.149 1.437 50.763 10.049 6.832 6.832 9.143 12.588 9.127 22.725-0.012 7.44-0.413 9.463-2.76 13.935-1.51 2.877-5.077 7.327-7.927 9.89-8.257 7.422-10.923 7.951-38.89 7.719-13.276-0.111-27.363-0.331-31.305-0.49z" />
</font>
</defs>
</svg>
